<?xml version="1.0" standalone="no"?>
<!DOCTYPE svg PUBLIC "-//W3C//DTD SVG 1.1//EN" "http://www.w3.org/Graphics/SVG/1.1/DTD/svg11.dtd" >
<svg xmlns="http://www.w3.org/2000/svg">
<metadata>Generated by IcoMoon</metadata>
<defs>
<font id="ezweb-admin-icons" horiz-adv-x="1024">
<font-face units-per-em="1024" ascent="960" descent="-64" />
<missing-glyph horiz-adv-x="1024" />
<glyph unicode="&#x20;" d="" horiz-adv-x="512" />
<glyph unicode="&#xe600;" d="M578.283 708.305c-5.573 16.854-21.496 25.684-37.015 20.539-5.615-1.863-10.819-5.489-15.041-10.517l-103.902-123.417c-3.458-4.113-12.179-10.022-17.282-11.717l-208.946-69.154c-19.775-6.547-30.535-27.959-23.988-47.734l50.109-151.393c6.547-19.775 27.959-30.544 47.725-23.997l212.069 70.194c5.061 1.67 15.478 2.073 20.639 0.806l153.961-37.804c6.471-1.586 12.901-1.435 18.575 0.445 15.461 5.112 22.931 21.655 17.374 38.459l-114.277 345.289zM260.742 332.086l-47.473 143.436 199.21 65.93 47.473-143.427-199.21-65.939zM512.655 402.683c-3.231 0.797-6.824 1.343-10.584 1.654l-52.383 158.267c-0.025 0.076-0.067 0.143-0.101 0.218 1.754 1.67 3.425 3.357 4.851 5.053l90.523 107.545 101.116-305.505-133.422 32.768zM681.598 682.756c-7.89 8.477-21.16 8.964-29.654 1.083s-8.973-21.168-1.083-29.662c23.191-24.954 42.034-58.041 54.49-95.677 12.431-37.552 17.131-76.758 13.22-110.399-1.335-11.516 6.916-21.94 18.424-23.267 3.139-0.369 6.186-0.008 8.998 0.915 7.521 2.493 13.295 9.14 14.26 17.509 4.667 40.163-0.546 84.572-15.058 128.436-14.336 43.302-36.327 81.719-63.597 111.062zM829.977 600.022c-20.413 61.675-51.653 116.274-90.355 157.931-7.881 8.486-21.16 8.973-29.662 1.091-8.486-7.89-8.973-21.16-1.083-29.654 34.623-37.275 62.733-86.562 81.257-142.546 18.759-56.681 25.55-113.597 19.632-164.562-1.335-11.507 6.916-21.932 18.432-23.258 3.131-0.369 6.186-0.017 8.998 0.915 7.521 2.484 13.287 9.132 14.269 17.509 6.606 57-0.823 120.135-21.487 182.574zM433.177 291.907c-3.643 11.004-15.511 16.972-26.515 13.329s-16.963-15.511-13.329-26.515l31.652-95.618-31.87-10.551-31.652 95.618c-3.643 11.012-15.511 16.972-26.515 13.337-11.012-3.651-16.972-15.519-13.329-26.515l38.241-115.544c3.643-11.012 15.511-16.972 26.506-13.329l71.714 23.728c11.004 3.651 16.972 15.519 13.329 26.515l-38.232 115.544z" />
<glyph unicode="&#xe601;" d="M805.77 712.317h-587.541c-36.268 0-65.771-29.503-65.771-65.771v-403.389c0-36.268 29.503-65.771 65.771-65.771h587.541c36.268 0 65.771 29.503 65.771 65.771v403.389c0 36.268-29.503 65.771-65.771 65.771zM827.694 243.158c0-12.095-9.829-21.924-21.924-21.924h-587.541c-12.095 0-21.924 9.829-21.924 21.924v403.389c0 12.095 9.829 21.924 21.924 21.924h587.541c12.095 0 21.924-9.829 21.924-21.924v-403.389zM678.039 398.965c-8.561 8.57-22.436 8.57-30.997 0l-83.515-83.515-137.124 137.115c-8.561 8.561-22.436 8.561-30.997 0l-153.222-153.214c-8.57-8.57-8.57-22.436 0-30.997 4.281-4.281 9.896-6.421 15.503-6.421s11.214 2.14 15.503 6.421l137.711 137.711 134.194-134.194c2.459-2.468 5.389-4.138 8.477-5.179 3.408-1.998 7.202-3.080 11.037-3.080 5.607 0 11.222 2.14 15.503 6.429l82.424 82.424 80.963-80.963c4.281-4.281 9.887-6.421 15.503-6.421s11.222 2.14 15.503 6.421c8.57 8.561 8.57 22.436 0 31.005l-96.466 96.457zM559.876 444.113c40.498 0 73.443 32.944 73.443 73.443s-32.944 73.443-73.443 73.443c-40.498 0-73.443-32.944-73.443-73.443s32.936-73.443 73.443-73.443zM559.876 547.151c16.325 0 29.595-13.278 29.595-29.595s-13.27-29.595-29.595-29.595-29.595 13.278-29.595 29.595c-0.008 16.325 13.27 29.595 29.595 29.595z" />
<glyph unicode="&#xe602;" d="M889.629 770.467c-2.879 12.993-15.721 21.185-28.739 18.289l-86.721-19.271c-11.868-2.636-19.615-13.597-18.692-25.365l-11.079-70.782c-1.167 0.176-2.333 0.353-3.55 0.353h-582.967c-7.336 0-14.269-3.332-18.835-9.082-4.574-5.733-6.287-13.236-4.65-20.396l66.249-289.070c2.359-10.257 11.105-17.811 21.58-18.633l463.713-36.637-7.118-45.484c-0.277-1.746-0.327-3.466-0.227-5.154-24.861-5.859-44.972-24.014-53.592-47.7h-195.5c-10.542 28.983-38.291 49.773-70.874 49.773-41.631 0-75.491-33.859-75.491-75.474 0-41.623 33.859-75.482 75.491-75.482 33.792 0 62.464 22.318 72.049 52.996h193.133c9.594-30.678 38.274-52.996 72.066-52.996 41.615 0 75.474 33.859 75.474 75.482 0 30.938-18.726 57.554-45.425 69.196 0.151 0.638 0.369 1.242 0.478 1.905l75.021 479.24 69.909 15.536c13.001 2.904 21.185 15.763 18.298 28.756zM243.662 383.152l-55.548 242.361h548.797l-43.503-277.898-449.746 35.538zM358.635 148.538c-15.058 0-27.304 12.246-27.304 27.304 0 15.049 12.246 27.295 27.304 27.295s27.295-12.246 27.295-27.295c0-15.058-12.246-27.304-27.295-27.304zM695.892 148.538c-15.058 0-27.312 12.246-27.312 27.304 0 15.049 12.246 27.295 27.312 27.295 15.049 0 27.295-12.246 27.295-27.295 0-15.058-12.246-27.304-27.295-27.304z" />
<glyph unicode="&#xe603;" d="M832.193 537.532h-22.511c-3.492 12.414-7.772 24.61-12.834 36.595-7.756 18.314-17.341 35.991-28.504 52.518-11.054 16.367-23.753 31.761-37.737 45.744s-29.377 26.683-45.744 37.737c-16.535 11.172-34.195 20.774-52.518 28.513-38.131 16.124-78.613 24.299-120.345 24.299s-82.214-8.175-120.337-24.299c-18.331-7.747-35.999-17.349-52.526-28.513-16.359-11.046-31.761-23.745-45.736-37.737-13.992-13.992-26.691-29.377-37.745-45.744-11.163-16.527-20.765-34.203-28.504-52.518-5.070-11.986-9.35-24.19-12.842-36.595h-22.511c-16.359 0-29.612-13.27-29.612-29.62v-158.72c0-16.359 13.253-29.604 29.612-29.604h63.966c16.35 0 29.612 13.253 29.612 29.604v158.72c0 16.359-13.262 29.62-29.612 29.62h-11.474c35.697 113.882 142.218 196.726 267.709 196.726 125.499 0 232.012-82.843 267.709-196.726h-11.465c-16.35 0-29.612-13.27-29.612-29.62v-158.72c0-13.136 8.553-24.274 20.396-28.152-38.811-71.932-108.141-125.087-190.514-141.992v5.422c0 9.149-7.428 16.569-16.585 16.569h-72.947c-9.157 0-16.585-7.42-16.585-16.569v-41.128c0-9.166 7.428-16.585 16.585-16.585h72.947c9.157 0 16.585 7.42 16.585 16.585v6.446c21.857 4.029 43.193 10.425 63.841 19.162 18.323 7.747 35.983 17.332 52.518 28.504 16.367 11.063 31.761 23.762 45.744 37.745s26.683 29.377 37.737 45.736c8.318 12.313 15.771 25.264 22.226 38.652h41.623c16.35 0 29.612 13.253 29.612 29.604v158.72c0 16.359-13.262 29.62-29.62 29.62z" />
<glyph unicode="&#xe604;" d="M521.543 325.069c-31.257-10.76-84.598-18.273-129.712-18.273-3.953 0-7.814-1.116-11.155-3.215l-109.048-68.432-1.007 86.78c-0.101 7.848-4.558 14.982-11.566 18.508-69.078 34.707-110.332 90.246-110.332 148.581 0 98.774 119.019 182.222 259.895 182.222 43.335 0 84.43-7.269 122.141-21.605 10.828-4.121 22.956 1.326 27.077 12.154 4.113 10.836-1.326 22.956-12.162 27.077-42.496 16.157-88.601 24.341-137.048 24.341-166.442 0-301.862-100.57-301.862-224.189 0-71.084 45.358-137.636 122.041-180.065l1.301-111.717c0.092-7.588 4.272-14.537 10.937-18.172 3.139-1.712 6.597-2.568 10.047-2.568 3.878 0 7.747 1.074 11.155 3.215l135.688 85.16c41.279 0.579 97.985 6.992 137.266 20.505 10.962 3.769 16.787 15.713 13.018 26.674-3.785 10.953-15.713 16.804-26.674 13.018zM695.598 650.391c-122.217 0-221.637-74.542-221.637-166.165 0-88.475 101.628-163.462 223.417-166.081l98.892-67.886c3.559-2.442 7.714-3.676 11.877-3.676 3.315 0 6.631 0.781 9.669 2.367 6.874 3.576 11.23 10.643 11.314 18.39l0.89 84.732c54.86 31.459 87.225 80.115 87.225 132.155 0 91.623-99.429 166.165-221.646 166.165zM799.752 383.429c-7.017-3.525-11.474-10.668-11.566-18.524l-0.604-57.772-71.722 49.228c-3.492 2.392-7.63 3.676-11.868 3.676-100.193 0-188.063 58.032-188.063 124.189 0 67.324 82.281 124.198 179.67 124.198s179.67-56.874 179.67-124.198c0-39.348-28.227-77.027-75.516-100.797z" />
<glyph unicode="&#xe605;" d="M902.992 496.136l-4.205 32.676-110.886 14.042c-3.945 11.113-8.561 21.966-13.807 32.491l66.812 89.399-20.463 25.793c-20.010 25.054-42.983 47.633-68.297 67.089l-26.078 20.069-88.249-68.432c-10.609 5.044-21.546 9.451-32.751 13.194l-16.006 110.659-32.634 3.584c-31.786 3.643-62.749 3.425-95.82-0.873l-32.567-4.281-14.034-110.785c-11.088-3.945-21.94-8.57-32.483-13.832l-89.516 66.913-25.701-20.547c-25.012-19.976-47.599-42.941-67.206-68.39l-19.859-26.036 68.365-88.215c-5.053-10.609-9.459-21.546-13.203-32.726l-110.651-16.006-3.584-32.634c-1.704-14.907-2.568-29.855-2.568-44.418 0-16.661 1.158-33.951 3.441-51.359l4.23-32.6 110.844-14.067c3.937-11.079 8.553-21.924 13.799-32.457l-66.862-89.474 20.472-25.684c19.909-25.004 42.89-47.608 68.339-67.181l26.053-20.010 88.265 68.407c10.626-5.053 21.563-9.459 32.776-13.194l15.956-110.558 32.718-3.693c15.049-1.687 29.973-2.543 44.359-2.543 16.678 0 33.448 1.116 51.343 3.408l32.634 4.272 14.017 110.81c11.096 3.945 21.949 8.553 32.491 13.807l89.449-66.82 25.743 20.463c25.063 19.993 47.65 42.983 67.114 68.331l20.044 26.062-68.432 88.249c5.061 10.643 9.476 21.58 13.211 32.76l110.609 16.031 3.66 32.676c1.679 15.041 2.535 29.965 2.535 44.359-0.008 16.812-1.167 34.103-3.416 51.276zM846.647 419.437l-103.323-14.982-4.927-18.86c-5.044-19.313-12.557-37.947-22.335-55.372l-9.527-16.988 63.916-82.424c-12.095-14.596-25.441-28.177-39.844-40.557l-83.632 62.472-16.82-9.862c-17.215-10.097-35.681-17.954-54.893-23.334l-18.759-5.263-13.102-103.525c-19.456-1.855-37.502-2.023-56.849-0.529l-14.924 103.348-18.894 4.919c-19.414 5.053-38.022 12.54-55.304 22.276l-16.988 9.577-82.491-63.933c-14.621 12.129-28.194 25.482-40.54 39.852l62.481 83.615-9.862 16.82c-10.097 17.232-17.945 35.689-23.325 54.876l-5.263 18.743-103.542 13.144c-1.024 10.676-1.544 21.202-1.544 31.408 0 8.343 0.336 16.846 1.007 25.432l103.34 14.957 4.919 18.868c5.053 19.389 12.548 37.972 22.293 55.271l9.577 16.988-63.941 82.508c12.12 14.588 25.466 28.152 39.86 40.54l83.649-62.514 16.829 9.896c17.232 10.131 35.681 17.987 54.843 23.351l18.768 5.254 13.119 103.542c19.548 1.872 37.804 2.023 56.832 0.529l14.957-103.332 18.86-4.927c19.448-5.070 38.064-12.582 55.304-22.293l17.005-9.585 82.449 63.941c14.596-12.103 28.185-25.457 40.566-39.852l-62.498-83.632 9.896-16.829c10.072-17.131 17.912-35.588 23.309-54.86l5.254-18.768 103.567-13.111c1.016-10.593 1.528-21.11 1.528-31.391 0-8.259-0.336-16.778-0.999-25.407zM511.983 593.928c-82.189 0-149.051-66.871-149.051-149.068 0-82.205 66.862-149.084 149.051-149.084 82.214 0 149.101 66.879 149.101 149.084-0.008 82.197-66.896 149.068-149.101 149.068zM511.983 354.539c-49.79 0-90.297 40.524-90.297 90.33 0 49.798 40.507 90.313 90.297 90.313 49.823 0 90.347-40.515 90.347-90.313-0.008-49.807-40.532-90.33-90.347-90.33z" />
<glyph unicode="&#xe606;" d="M512 801.59c-196.709 0-356.738-160.029-356.738-356.738s160.029-356.738 356.738-356.738 356.738 160.029 356.738 356.738-160.029 356.738-356.738 356.738zM760.438 251.92c-22.746 12.523-48.741 23.116-77.010 31.626 12.254 42.143 19.809 89.592 21.512 140.33h121.059c-4.281-64.546-28.076-123.812-65.561-171.956zM198.010 423.868h119.061c1.687-50.377 9.149-97.507 21.252-139.415-27.933-8.209-53.71-18.398-76.38-30.477-36.553 47.775-59.728 106.269-63.933 169.892zM260.591 634.015c22.637-12.313 48.439-22.729 76.498-31.089-11.533-41.388-18.608-87.686-20.111-137.090h-118.969c4.155 62.85 26.783 120.723 62.582 168.179zM491.016 307.51c-38.727-1.041-76.38-5.439-111.574-12.775-11.382 38.778-18.6 82.701-20.354 129.142h131.928v-116.367zM491.016 265.526v-121.596c-38.836 10.702-73.569 51.955-97.7 110.903 30.812 6.077 63.757 9.728 97.7 10.693zM532.984 265.308c33.246-1.225 65.41-4.969 95.467-11.079-23.711-57.621-57.562-98.27-95.467-109.778v120.857zM532.984 307.3v116.568h129.93c-1.754-46.701-9.048-90.851-20.547-129.796-34.438 7.386-71.319 11.902-109.383 13.228zM532.984 465.836v113.79c38.576 1.351 75.902 5.976 110.684 13.555 10.911-38.4 17.761-81.668 19.322-127.345h-130.006zM532.984 621.618v125.65c38.845-11.801 73.417-54.238 97.196-114.159-30.519-6.345-63.27-10.24-97.196-11.491zM612.511 743.071c45.887-15.519 87.082-41.271 120.79-74.634-18.491-9.652-39.214-17.987-61.742-24.828-15.444 40.28-35.538 74.223-59.048 99.462zM491.016 747.788v-126.388c-34.623 0.982-68.163 4.767-99.446 11.079 24.19 61.272 59.652 104.339 99.446 115.309zM491.016 579.416v-113.58h-132.012c1.553 45.4 8.326 88.442 19.129 126.682 35.546-7.537 73.636-12.045 112.883-13.102zM351.778 244.744c15.687-39.894 35.999-73.359 59.686-98.103-45.954 15.536-87.199 41.338-120.924 74.769 18.474 9.090 39.046 16.913 61.239 23.334zM669.889 243.888c22.444-6.681 43.184-14.806 61.717-24.24-34.119-33.288-75.742-58.888-122.066-74.022 23.938 24.668 44.485 58.183 60.349 98.262zM705.016 465.836c-1.511 49.773-8.679 96.382-20.362 137.997 28.387 8.679 54.406 19.481 77.119 32.264 36.721-47.843 59.996-106.479 64.218-170.261h-120.975zM408.643 742.106c-23.317-25.331-43.243-59.199-58.536-99.362-22.259 6.58-42.823 14.588-61.239 23.888 33.339 33.54 74.198 59.577 119.774 75.474z" />
<glyph unicode="&#xe607;" d="M951.296 451.525l-402.575 402.868c-9.652 9.686-23.040 15.259-36.721 15.259-13.858 0-26.893-5.414-36.688-15.226l-402.726-403.003c-14.789-14.915-19.145-37.082-11.121-56.429 8.049-19.456 26.867-32.029 47.943-32.029h52.854v-291.051c0-28.605 23.258-51.871 51.838-51.871h595.783c28.622 0 51.913 23.258 51.913 51.871v291.051h52.803c21.059 0 39.877 12.573 47.927 32.004 8.066 19.473 3.651 41.665-11.23 56.555zM803.043 421.72v-342.914h-191.891v239.868h-198.295v-239.868h-191.841v342.914h-95.064l386.048 386.3 386.031-386.291h-94.989z" />
<glyph unicode="&#xe608;" d="M795.245 725.034c-36.864 36.872-85.857 57.168-137.988 57.168-52.115 0-101.133-20.295-137.988-57.168-76.070-76.078-76.070-199.881 0.008-275.985 36.856-36.856 85.865-57.151 137.98-57.151 52.132 0 101.133 20.295 137.988 57.159s57.159 85.865 57.159 137.988c-0.008 52.132-20.304 101.133-57.159 137.988zM765.566 478.728c-28.924-28.924-67.399-44.863-108.317-44.863-40.91 0-79.377 15.931-108.309 44.863-59.719 59.728-59.719 156.907 0 216.635 28.932 28.932 67.399 44.871 108.309 44.871 40.918 0 79.385-15.931 108.317-44.871 28.924-28.932 44.863-67.391 44.863-108.309s-15.931-79.394-44.863-108.326zM499.678 401.147l-47.927-47.54c-3.299-3.282-5.422-7.537-6.026-12.145l-6.337-47.885-45.694-7.244c-9.527-1.519-16.787-9.308-17.626-18.919l-4.935-56.824-51.427-6.413c-4.684-0.588-9.031-2.736-12.355-6.11l-47.205-47.943-42.655 3.080-3.265 42.655 248.135 248.035c8.2 8.2 8.2 21.479 0 29.671s-21.479 8.209-29.671 0.008l-254.951-254.842c-4.331-4.331-6.547-10.332-6.085-16.434l5.372-70.295c0.797-10.358 9.040-18.583 19.406-19.338l70.362-5.095c0.512-0.042 1.016-0.059 1.519-0.059 5.598 0 10.995 2.249 14.957 6.262l48.883 49.664 61.029 7.604c9.82 1.225 17.45 9.149 18.306 19.011l4.986 57.394 44.955 7.134c9.174 1.46 16.292 8.771 17.517 17.97l7.453 56.312 42.84 42.496c8.226 8.158 8.276 21.454 0.126 29.679-8.175 8.226-21.462 8.276-29.688 0.109zM685.148 652.229c-8.2 8.184-21.479 8.192-29.671-0.008-8.2-8.192-8.2-21.487 0-29.679l41.766-41.757c4.096-4.096 9.468-6.144 14.84-6.144s10.744 2.048 14.848 6.144c8.192 8.2 8.192 21.487-0.008 29.679l-41.774 41.766z" />
<glyph unicode="&#xe609;" d="M844.783 777.618c-61.549 61.549-168.079 59.014-232.607-5.548l-80.141-80.132c-42.974-42.974-60.441-107.94-44.494-165.51 2.896-10.467 12.389-17.316 22.738-17.316 2.090 0 4.205 0.285 6.312 0.865 12.573 3.483 19.926 16.485 16.451 29.050-11.482 41.455 1.225 88.375 32.374 119.531l80.141 80.132c21.966 21.966 52.526 35.244 83.825 36.444 31.585 1.335 60.869-9.762 82.012-30.896 43.419-43.436 40.876-119.372-5.573-165.829l-80.132-80.132c-29.293-29.293-72.293-42.37-112.162-34.145-12.75 2.627-25.264-5.582-27.891-18.356-2.636-12.766 5.59-25.256 18.356-27.883 10.97-2.266 22.1-3.366 33.204-3.366 44.897 0 89.508 18.004 121.881 50.369l80.132 80.132c64.537 64.537 67.097 171.050 5.573 232.591zM511.32 370.696c-12.783-2.585-21.059-15.033-18.482-27.816 8.016-39.751-5.12-82.566-34.254-111.725l-80.141-80.132c-46.441-46.441-122.393-49.009-165.821-5.573-21.143 21.143-32.113 50.268-30.896 82.012 1.2 31.299 14.479 61.851 36.444 83.825l80.141 80.141c32.13 32.122 80.183 44.468 122.427 31.543 12.439-3.819 25.676 3.181 29.495 15.645 3.827 12.473-3.181 25.676-15.637 29.495-58.729 18.021-125.339 1.016-169.665-43.302l-80.141-80.141c-64.546-64.546-67.089-171.067-5.548-232.607 29.78-29.78 70.085-44.544 111.070-44.544 43.713 0.008 88.207 16.804 121.52 50.117l80.141 80.132c40.179 40.196 58.242 99.362 47.163 154.439-2.585 12.792-15.066 21.042-27.816 18.491zM431.868 358.039c4.608-4.608 10.651-6.916 16.695-6.916 6.035 0 12.078 2.3 16.695 6.916l133.556 133.556c9.224 9.224 9.224 24.165 0 33.389s-24.165 9.224-33.389 0l-133.556-133.556c-9.224-9.224-9.224-24.165 0-33.389z" />
<glyph unicode="&#xe60a;" d="M511.908 445.515c17.802 0 32.071 14.277 32.071 31.895v154.020c0 17.626-14.269 31.895-32.071 31.895-17.626 0-31.895-14.277-31.895-31.895v-154.028c0-17.618 14.277-31.887 31.895-31.887zM805.863 738.488v0.092h-0.176v0.176c-75.256 75.205-179.049 121.688-293.779 121.688-114.545 0-218.347-46.483-293.594-121.688l-0.176-0.176c-75.247-75.247-121.772-179.049-121.772-293.77 0-114.545 46.525-218.439 121.596-293.687l0.353-0.185c75.071-75.247 179.049-121.68 293.594-121.68 114.73 0 218.523 46.34 293.779 121.596v0.176h0.176c75.256 75.247 121.78 179.225 121.78 293.77s-46.525 218.532-121.78 293.687zM760.748 196.146l-0.176-0.176c-63.446-63.446-151.384-102.828-248.664-102.828-97.095 0-185.042 39.382-248.656 102.828v0.176c-63.622 63.622-102.92 151.56-102.92 248.656 0 97.28 39.298 185.126 102.92 248.656v0.176c63.614 63.53 151.56 102.87 248.656 102.87 97.28 0 185.218-39.348 248.664-102.87l0.176-0.176c63.622-63.53 102.92-151.384 102.92-248.656-0.008-97.095-39.298-185.033-102.92-248.656zM713.166 529.752c-5.64 13.396-12.338 25.818-19.909 37.183-7.932 11.81-16.921 22.729-26.783 32.424-12.338 12.515-32.609 12.515-45.115 0-12.515-12.515-12.515-32.776 0-45.207 7.050-7.134 13.564-14.89 19.036-22.998 5.64-8.461 10.391-17.274 14.101-26.078 4.046-9.342 7.050-19.213 9.166-29.427 1.93-9.518 2.988-19.918 2.988-30.838s-1.058-21.328-2.988-30.838c-2.115-10.223-5.112-20.094-9.166-29.427-3.702-8.813-8.461-17.626-14.101-26.078-5.464-8.108-11.986-15.864-19.036-22.906-7.050-7.227-14.982-13.572-23.090-19.036-8.461-5.817-17.274-10.576-26.078-14.277-9.166-3.878-19.204-7.050-29.251-9.166-9.686-1.855-20.094-2.913-31.014-2.913s-21.319 1.058-30.838 2.913c-10.223 2.115-20.094 5.288-29.436 9.166-8.813 3.702-17.626 8.461-26.078 14.277-8.108 5.464-15.864 11.81-22.906 19.036-7.050 7.050-13.564 14.806-19.036 22.906-5.64 8.461-10.576 17.274-14.269 26.078-3.878 9.342-7.050 19.213-8.989 29.427-1.93 9.518-2.988 19.918-2.988 30.838s1.058 21.328 2.988 30.838c1.939 10.223 5.112 20.094 8.989 29.427 3.693 8.813 8.628 17.626 14.269 26.078 5.464 8.108 11.986 15.864 19.036 22.998 12.515 12.422 12.515 32.692 0 45.207-12.506 12.515-32.776 12.515-45.291 0-9.694-9.694-18.684-20.623-26.616-32.424-7.756-11.365-14.454-23.787-20.094-37.183-5.64-13.22-9.871-27.136-12.859-41.59-2.82-14.361-4.407-28.899-4.407-43.352s1.586-28.899 4.407-43.352c2.988-14.454 7.218-28.37 12.859-41.59 5.64-13.396 12.338-25.818 20.094-37.091 7.932-11.717 16.921-22.738 26.616-32.516 9.871-9.694 20.799-18.768 32.6-26.783 11.281-7.579 23.611-14.277 37.007-19.918 13.22-5.64 27.321-10.047 41.59-12.867 14.454-2.913 28.899-4.407 43.352-4.407s29.083 1.494 43.352 4.407c14.454 2.82 28.378 7.227 41.774 12.867 13.211 5.64 25.726 12.338 37.007 19.918 11.801 8.016 22.729 17.097 32.424 26.783 9.871 9.778 18.852 20.799 26.783 32.516 7.571 11.281 14.269 23.703 19.909 37.091 5.64 13.22 10.047 27.136 12.867 41.59 2.988 14.454 4.583 28.899 4.583 43.352s-1.586 28.991-4.583 43.352c-2.829 14.445-7.235 28.37-12.876 41.59z" />
<glyph unicode="&#xe60b;" d="M805.77 558.163h-62.951c-11.591 0-20.984-9.392-20.984-20.984s9.392-20.984 20.984-20.984h29.083l-181.038-181.038-68.323 39.701c-0.218 0.126-0.453 0.185-0.671 0.302-0.68 0.361-1.377 0.663-2.090 0.948-0.588 0.235-1.167 0.478-1.763 0.655-0.68 0.201-1.368 0.336-2.065 0.47-0.638 0.126-1.276 0.252-1.922 0.319-0.697 0.067-1.393 0.067-2.098 0.059-0.646 0-1.276 0-1.922-0.050-0.697-0.067-1.377-0.201-2.065-0.344-0.655-0.134-1.301-0.26-1.939-0.445-0.613-0.185-1.217-0.428-1.821-0.68-0.697-0.285-1.393-0.579-2.056-0.932-0.218-0.118-0.453-0.176-0.671-0.302l-68.331-39.701-181.030 181.038h29.083c11.591 0 20.984 9.392 20.984 20.984s-9.392 20.984-20.984 20.984h-62.951c-20.824 0-37.77-16.946-37.77-37.77v-327.344c0-20.824 16.946-37.77 37.77-37.77h587.541c20.824 0 37.77 16.946 37.77 37.77v327.344c0 20.824-16.946 37.77-37.77 37.77zM512 332.447l232.675-135.202h-465.358l232.683 135.202zM801.574 486.517v-274.079c-0.638 0.478-1.225 0.99-1.93 1.402l-171.243 99.513 173.174 173.165zM222.426 212.723v273.794l173.174-173.165-173.174-100.629zM352.525 470.032c11.591 0 20.984 9.392 20.984 20.984v201.443h276.984v-201.443c0-11.591 9.392-20.984 20.984-20.984s20.984 9.392 20.984 20.984v222.426c0 11.591-9.392 20.984-20.984 20.984h-318.951c-11.591 0-20.984-9.392-20.984-20.984v-222.426c0-11.591 9.392-20.984 20.984-20.984zM600.131 583.344h-176.262c-11.591 0-20.984-9.392-20.984-20.984s9.392-20.984 20.984-20.984h176.262c11.591 0 20.984 9.392 20.984 20.984s-9.392 20.984-20.984 20.984zM600.131 507.803h-176.262c-11.591 0-20.984-9.392-20.984-20.984s9.392-20.984 20.984-20.984h176.262c11.591 0 20.984 9.392 20.984 20.984s-9.392 20.984-20.984 20.984zM600.131 658.885h-176.262c-11.591 0-20.984-9.392-20.984-20.984s9.392-20.984 20.984-20.984h176.262c11.591 0 20.984 9.392 20.984 20.984s-9.392 20.984-20.984 20.984z" />
<glyph unicode="&#xe60c;" d="M449.335 323.088h-119.951c-10.282 0-18.575-8.351-18.575-18.575v-119.959c0-10.282 8.293-18.575 18.575-18.575h119.959c10.282 0 18.575 8.293 18.575 18.575v119.959c-0.008 10.223-8.301 18.575-18.583 18.575zM430.768 203.129h-82.818v82.751h82.818v-82.751zM483.328 754.318l-30.838-30.838c-1.049 0.176-2.098 0.235-3.156 0.235h-119.951c-10.282 0-18.575-8.293-18.575-18.566v-119.9c0-10.282 8.293-18.633 18.575-18.633h119.959c10.282 0 18.575 8.351 18.575 18.633v101.267l41.699 41.699c7.244 7.244 7.126 18.986 0 26.23-7.369 7.176-19.045 7.118-26.288-0.126zM415.585 686.575l-23.594-23.594-21.143 23.594h44.737zM430.768 603.815h-82.818v52.854l29.553-32.995c6.774-7.588 18.457-8.234 26.162-1.46l0.697 0.755 26.397 26.339v-45.492zM449.335 523.398h-119.951c-10.282 0-18.575-8.293-18.575-18.575v-119.959c0-10.282 8.293-18.575 18.575-18.575h119.959c10.282 0 18.575 8.293 18.575 18.575v119.967c-0.008 10.274-8.301 18.566-18.583 18.566zM430.768 403.506h-82.818v82.751h82.818v-82.751zM855.46 614.45l-224.147 224.088c-5.607 5.548-13.312 9.048-21.848 9.048h-366.877c-22.897 0-43.688-9.342-58.637-24.349-15.066-15.007-24.408-35.739-24.408-58.637v-639.555c0-22.78 9.342-43.562 24.408-58.578v0.059l0.118-0.059c15.066-15.007 35.739-24.349 58.519-24.349h538.926c22.427 0 42.865 9.057 57.814 23.653l0.823 0.823c15.066 15.007 24.299 35.739 24.299 58.46v467.498c0.008 7.881-3.030 15.822-8.989 21.898zM628.048 754.201l143.083-143.083h-109.677c-9.233 0-17.643 3.802-23.594 9.812l-0.932 0.823c-5.489 5.951-8.88 13.958-8.88 22.721v109.727zM802.547 125.045c0-5.724-2.333-10.92-6.077-14.772l-0.118-0.118c-3.853-3.735-9.107-6.077-14.831-6.077h-538.926c-5.842 0-11.096 2.392-14.831 6.127v0.059c-3.853 3.853-6.194 9.048-6.194 14.772v639.564c0 5.724 2.333 11.037 6.194 14.84 3.853 3.794 9.107 6.186 14.831 6.186h348.194v-141.153c0-18.743 7.588-35.974 19.741-48.648l1.049-1.167c12.733-12.733 30.485-20.732 49.874-20.732h141.102v-448.881z" />
<glyph unicode="&#xe60d;" d="M746.102 219.052c0 69.179-60.047 100.26-79.78 110.483-31.694 16.392-53.198 22.050-70.48 26.599-18.835 4.952-32.449 8.528-55.002 24.576-10.173 7.235-24.299 4.868-31.517-5.313-7.244-10.173-4.86-24.291 5.313-31.526 29.285-20.824 48.917-25.994 69.716-31.459 16.686-4.39 33.951-8.922 61.197-23.040 36.26-18.759 53.080-38.358 55.128-64.697-62.942-56.933-151.753-85.865-264.301-85.865-103.046 0-191.815 30.275-257.595 87.527 2.627 25.491 19.456 44.67 54.935 63.035 27.262 14.109 44.519 18.65 61.205 23.040 20.799 5.464 40.431 10.634 69.716 31.459 10.173 7.235 12.557 21.353 5.313 31.526-7.235 10.173-21.345 12.54-31.526 5.313-22.553-16.048-36.167-19.615-55.002-24.576-17.282-4.549-38.786-10.206-70.488-26.599-19.725-10.215-79.771-41.296-79.771-110.483 0-0.462 0.109-0.89 0.134-1.343-0.353-6.471 1.972-13.035 7.092-17.786 74.97-69.556 177.32-106.32 295.986-106.32 128.999 0 230.929 35.387 302.945 105.178 5.229 5.070 7.386 12.036 6.639 18.743 0.025 0.512 0.143 0.999 0.143 1.528zM321.318 475.413c1.133-0.604 2.61-1.402 3.802-2.082 2.3-4.49 4.541-8.989 6.757-13.446 18.743-37.787 42.085-84.816 103.080-84.816 0.906 0 1.771 0.168 2.652 0.269 0.881-0.101 1.746-0.269 2.661-0.269 60.987 0 84.312 47.012 103.055 84.782 2.224 4.465 4.457 8.989 6.774 13.48 1.192 0.68 2.661 1.477 3.794 2.082 8.452 4.574 18.029 9.762 22.251 20.379 8.041 20.245 12.397 49.194 13.136 68.91 0.571 15.091-10.87 21.521-23.015 28.303 0.151 12.456 0.504 21.857 0.772 29.159 0.453 11.86 0.713 19.020-0.394 26.003-6.119 38.627-33.020 84.665-126.38 84.665-0.906 0-1.771-0.168-2.661-0.269-0.881 0.101-1.746 0.269-2.652 0.269-93.36 0-120.261-46.046-126.38-84.673-1.108-6.983-0.839-14.118-0.386-25.944 0.277-7.327 0.63-16.745 0.781-29.209-12.12-6.765-23.552-13.178-23.032-28.311 0.747-19.725 5.103-48.69 13.127-68.902 4.222-10.634 13.807-15.805 22.259-20.379zM354.237 581.078c0 19.523-0.512 33.003-0.881 42.849-0.311 8.125-0.546 14.537-0.143 17.156 2.216 13.925 7.378 46.542 81.735 46.542 0.906 0 1.771 0.168 2.652 0.269 0.881-0.101 1.746-0.269 2.661-0.269 74.349 0 79.519-32.617 81.735-46.558 0.42-2.619 0.176-9.048-0.134-17.198-0.369-9.837-0.881-23.3-0.881-42.865 0.042-14.135 10.693-20.455 22.209-26.884-1.402-13.262-4.146-27.077-7.428-37.074-1.116-0.638-2.384-1.309-3.383-1.855-7.453-4.029-15.897-8.586-20.463-17.282-3.148-5.976-6.144-12.011-9.098-17.97-19.456-39.214-31.081-59.669-62.565-59.669-0.906 0-1.771-0.168-2.661-0.269-0.881 0.101-1.746 0.269-2.652 0.269-31.492 0-43.117 20.463-62.59 59.694-2.954 5.959-5.943 11.969-9.082 17.945-4.574 8.687-13.027 13.253-20.472 17.282-0.999 0.537-2.258 1.217-3.383 1.855-3.534 10.727-6.094 24.752-7.411 37.074 11.549 6.438 22.184 12.75 22.234 26.96zM546.38 742.131c2.803 0 5.666 0.529 8.427 1.637 11.768 4.742 27.505 7.143 46.768 7.143 0.839 0 1.637 0.159 2.451 0.243 0.823-0.084 1.612-0.243 2.451-0.243 67.231 0 71.839-29.117 73.812-41.564 0.353-2.249 0.134-8.116-0.151-15.545-0.344-9.098-0.814-21.571-0.814-39.693 0.050-13.639 9.703-19.758 20.413-25.785-1.276-11.507-3.643-23.342-6.455-32.13-0.873-0.478-1.763-0.965-2.51-1.368-7.109-3.836-15.15-8.184-19.615-16.669-2.904-5.54-5.682-11.121-8.419-16.636-4.197-8.461-8.158-16.443-12.364-23.661-6.278-10.794-2.61-24.626 8.175-30.905 3.576-2.073 7.487-3.064 11.348-3.064 7.781 0 15.36 4.020 19.557 11.239 4.952 8.511 9.443 17.551 13.774 26.297 1.972 3.995 3.97 8.016 6.035 12.028 0.94 0.529 1.972 1.049 2.996 1.612 7.663 4.138 17.215 9.3 21.336 19.708 7.504 18.885 11.558 45.87 12.254 64.252 0.546 14.579-10.358 21.101-21.252 27.195 0.143 10.995 0.462 19.347 0.705 25.885 0.411 11.046 0.671 17.71-0.386 24.333-5.758 36.352-30.989 79.679-118.457 79.679-0.839 0-1.637-0.159-2.451-0.243-0.814 0.092-1.612 0.243-2.451 0.243-25.441 0-46.256-3.408-63.647-10.408-11.583-4.675-17.19-17.836-12.531-29.411 3.567-8.813 12.045-14.168 21-14.168zM890.637 318.27c0.025 0.487 0.143 0.948 0.143 1.444 0 64.982-56.186 94.049-74.643 103.6-29.453 15.242-49.429 20.497-65.469 24.71-17.223 4.532-29.679 7.806-50.26 22.444-10.181 7.244-24.291 4.868-31.517-5.313-7.244-10.173-4.86-24.291 5.313-31.517 27.304-19.422 45.593-24.24 64.957-29.327 15.326-4.037 31.173-8.217 56.202-21.16 32.533-16.837 47.658-34.413 49.773-57.705-11.583-10.399-24.072-19.876-37.342-28.143-10.593-6.597-13.841-20.53-7.235-31.131 4.281-6.874 11.658-10.66 19.204-10.66 4.079 0 8.209 1.1 11.927 3.416 18.835 11.717 36.428 25.457 52.283 40.809 5.17 5.019 7.336 11.894 6.664 18.533z" />
<glyph unicode="&#xe60e;" d="M840.922 763.803h-657.836c-24.735 0-44.855-20.119-44.855-44.855v-398.689c0-24.735 20.119-44.855 44.855-44.855h104.658v-124.592c0-9.459 5.355-18.096 13.816-22.31 3.517-1.746 7.311-2.602 11.096-2.602 5.321 0 10.618 1.704 15.033 5.044l191.018 144.468h322.216c24.735 0 44.855 20.119 44.855 44.855v398.689c-0.008 24.727-20.127 44.846-44.855 44.846zM835.937 325.245h-325.59c-5.431 0-10.702-1.771-15.033-5.044l-157.738-119.288v99.412c0 13.765-11.155 24.92-24.92 24.92h-124.592v388.717h647.873v-388.717zM297.707 584.393h428.594c13.765 0 24.92 11.155 24.92 24.92s-11.155 24.92-24.92 24.92h-428.594c-13.765 0-24.92-11.155-24.92-24.92s11.155-24.92 24.92-24.92zM297.707 494.684h428.594c13.765 0 24.92 11.155 24.92 24.92s-11.155 24.92-24.92 24.92h-428.594c-13.765 0-24.92-11.155-24.92-24.92s11.155-24.92 24.92-24.92zM297.707 404.983h428.594c13.765 0 24.92 11.155 24.92 24.92s-11.155 24.92-24.92 24.92h-428.594c-13.765 0-24.92-11.155-24.92-24.92s11.155-24.92 24.92-24.92z" />
<glyph unicode="&#xe60f;" d="M354.623 801.573h-167.869c-11.591 0-20.984-9.392-20.984-20.984v-167.869c0-11.591 9.392-20.984 20.984-20.984h167.869c11.591 0 20.984 9.392 20.984 20.984v167.869c0 11.591-9.392 20.984-20.984 20.984zM333.639 633.704h-125.902v125.902h125.902v-125.902zM354.623 549.77h-167.869c-11.591 0-20.984-9.392-20.984-20.984v-167.869c0-11.591 9.392-20.984 20.984-20.984h167.869c11.591 0 20.984 9.392 20.984 20.984v167.869c0 11.591-9.392 20.984-20.984 20.984zM333.639 381.901h-125.902v125.902h125.902v-125.902zM354.623 297.967h-167.869c-11.591 0-20.984-9.392-20.984-20.984v-167.869c0-11.591 9.392-20.984 20.984-20.984h167.869c11.591 0 20.984 9.392 20.984 20.984v167.869c0 11.591-9.392 20.984-20.984 20.984zM333.639 130.098h-125.902v125.902h125.902v-125.902zM442.754 717.639h394.492c11.591 0 20.984 9.392 20.984 20.984s-9.392 20.984-20.984 20.984h-394.492c-11.591 0-20.984-9.392-20.984-20.984s9.392-20.984 20.984-20.984zM442.754 633.704h226.623c11.591 0 20.984 9.392 20.984 20.984s-9.392 20.984-20.984 20.984h-226.623c-11.591 0-20.984-9.392-20.984-20.984s9.392-20.984 20.984-20.984zM837.246 507.803h-394.492c-11.591 0-20.984-9.392-20.984-20.984s9.392-20.984 20.984-20.984h394.492c11.591 0 20.984 9.392 20.984 20.984s-9.392 20.984-20.984 20.984zM442.754 381.901h226.623c11.591 0 20.984 9.392 20.984 20.984s-9.392 20.984-20.984 20.984h-226.623c-11.591 0-20.984-9.392-20.984-20.984s9.392-20.984 20.984-20.984zM837.246 256h-394.492c-11.591 0-20.984-9.392-20.984-20.984s9.392-20.984 20.984-20.984h394.492c11.591 0 20.984 9.392 20.984 20.984s-9.392 20.984-20.984 20.984zM669.377 172.065h-226.623c-11.591 0-20.984-9.392-20.984-20.984s9.392-20.984 20.984-20.984h226.623c11.591 0 20.984 9.392 20.984 20.984s-9.392 20.984-20.984 20.984zM270.689 412.932c17.601 0 31.92 14.319 31.92 31.92s-14.319 31.92-31.92 31.92-31.92-14.319-31.92-31.92 14.319-31.92 31.92-31.92z" />
<glyph unicode="&#xe610;" d="M906.878 680.254c-28.143 20.279-51.838-12.876-51.838-12.876l56.169-40.456c0 0 23.812 33.045-4.331 53.332zM796.361 585.912l-22.906-31.903-121.915-169.43 56.177-40.448 24.148 33.599 20.975 29.066 20.614 28.706 127.387 177.068-56.169 40.448zM731.866 161.59c0-18.919-15.033-34.186-33.498-34.186h-467.716c-18.466 0-33.507 15.268-33.507 34.186v566.39c0 18.919 15.041 34.296 33.507 34.296h467.716c18.466 0 33.498-15.377 33.498-34.296v-183.33l41.59 57.772v162.489c0 21.42-17.316 38.744-38.744 38.744h-540.412c-21.311 0-38.627-17.324-38.627-38.744v-640.118c0-21.42 17.316-38.744 38.627-38.744h540.412c21.428 0 38.744 17.324 38.744 38.744v267.18l-41.59-57.755v-172.628zM641.058 369.991l-17.66-83.867 73.829 43.419zM248.312 230.416h247.363v-36.008h-247.363v36.008zM248.312 313.704h247.363v-36.125h-247.363v36.125zM248.312 393.694h247.363v-35.899h-247.363v35.899zM248.312 476.865h247.363v-35.882h-247.363v35.882zM248.312 559.246h247.363v-36.008h-247.363v36.008zM248.312 642.425h247.363v-36.008h-247.363v36.008z" />
<glyph unicode="&#xe611;" d="M772.784 89.448h-470.788c-12.75 0-23.082 10.332-23.082 23.074v50.78c0 12.741 10.332 23.074 23.082 23.074s23.074-10.332 23.074-23.074v-27.698h424.633v618.496h-424.633v-36.923c0-12.741-10.324-23.074-23.074-23.074s-23.082 10.332-23.082 23.074v60.005c0 12.741 10.332 23.074 23.082 23.074h470.788c12.75 0 23.082-10.332 23.082-23.074v-664.66c-0.008-12.741-10.341-23.074-23.082-23.074zM315.837 624.858h-64.613c-12.75 0-23.082 10.332-23.082 23.082 0 12.741 10.332 23.074 23.082 23.074h64.613c12.75 0 23.082-10.332 23.082-23.074 0-12.75-10.341-23.082-23.082-23.082zM315.837 541.779h-64.613c-12.75 0-23.082 10.332-23.082 23.082s10.332 23.074 23.082 23.074h64.613c12.75 0 23.082-10.324 23.082-23.074s-10.341-23.082-23.082-23.082zM315.837 458.693h-64.613c-12.75 0-23.082 10.332-23.082 23.082s10.332 23.074 23.082 23.074h64.613c12.75 0 23.082-10.324 23.082-23.074s-10.341-23.082-23.082-23.082zM315.837 375.614h-64.613c-12.75 0-23.082 10.332-23.082 23.082s10.332 23.082 23.082 23.082h64.613c12.75 0 23.082-10.332 23.082-23.082s-10.341-23.082-23.082-23.082zM638.926 541.779h-193.855c-12.75 0-23.082 10.332-23.082 23.082s10.332 23.074 23.082 23.074h193.855c12.75 0 23.082-10.324 23.082-23.074s-10.332-23.082-23.082-23.082zM638.926 458.693h-193.855c-12.75 0-23.082 10.332-23.082 23.082s10.332 23.074 23.082 23.074h193.855c12.75 0 23.082-10.324 23.082-23.074s-10.332-23.082-23.082-23.082zM638.926 375.614h-193.855c-12.75 0-23.082 10.332-23.082 23.082s10.332 23.082 23.082 23.082h193.855c12.75 0 23.082-10.332 23.082-23.082s-10.332-23.082-23.082-23.082zM315.837 292.545h-64.613c-12.75 0-23.082 10.324-23.082 23.074s10.332 23.082 23.082 23.082h64.613c12.75 0 23.082-10.332 23.082-23.082s-10.341-23.074-23.082-23.074zM315.837 209.458h-64.613c-12.75 0-23.082 10.324-23.082 23.074s10.332 23.082 23.082 23.082h64.613c12.75 0 23.082-10.332 23.082-23.082 0-12.741-10.341-23.074-23.082-23.074z" />
<glyph unicode="&#xe612;" d="M867.227 442.603l-89.911 113.429c8.368 3.038 16.275 7.411 23.418 13.069 36.1 28.622 42.546 80.812 13.942 116.912-28.613 36.1-80.913 41.732-117.005 13.111 0 0-0.017-0.008-0.025-0.017-7.109-5.632-13.194-12.296-18.113-19.699l-88.635 111.817c-7.185 9.082-20.404 10.609-29.478 3.408l-167.735-132.952c-0.235-0.185-0.403-0.411-0.63-0.613-0.504-0.428-0.957-0.898-1.418-1.377-0.504-0.529-0.999-1.049-1.435-1.62-0.378-0.487-0.705-1.007-1.049-1.528-0.403-0.621-0.797-1.242-1.125-1.897-0.285-0.554-0.504-1.133-0.73-1.712-0.269-0.688-0.529-1.368-0.73-2.073-0.168-0.588-0.269-1.192-0.386-1.805-0.143-0.764-0.26-1.528-0.319-2.3-0.017-0.252-0.092-0.478-0.101-0.73-0.008-0.361 0.059-0.697 0.067-1.058 0.008-0.789 0.050-1.561 0.151-2.35 0.084-0.613 0.185-1.217 0.319-1.813 0.159-0.722 0.344-1.427 0.571-2.132 0.201-0.621 0.445-1.217 0.697-1.813 0.277-0.638 0.588-1.267 0.932-1.889 0.344-0.613 0.722-1.192 1.125-1.763 0.235-0.327 0.394-0.688 0.646-1.007 0.176-0.227 0.403-0.386 0.579-0.604 0.462-0.529 0.957-1.024 1.46-1.502s0.999-0.948 1.536-1.368c0.52-0.403 1.066-0.755 1.62-1.108 0.596-0.378 1.183-0.755 1.805-1.066 0.579-0.294 1.192-0.529 1.805-0.772 0.655-0.252 1.309-0.512 1.981-0.697 0.613-0.176 1.242-0.285 1.889-0.403 0.73-0.134 1.46-0.252 2.207-0.311 0.26-0.017 0.512-0.101 0.772-0.109 12.246-0.462 21.479-5.128 29.050-14.68 14.244-17.97 11.214-44.175-6.748-58.41-17.97-14.244-44.175-11.205-58.418 6.765-7.437 9.367-10.19 20.002-8.192 31.601 0.034 0.193 0.008 0.386 0.042 0.579 0.101 0.722 0.126 1.452 0.151 2.191 0.025 0.655 0.076 1.309 0.034 1.947-0.034 0.68-0.159 1.351-0.26 2.023-0.109 0.671-0.185 1.343-0.353 1.998-0.168 0.638-0.411 1.259-0.638 1.889-0.235 0.655-0.453 1.309-0.747 1.93-0.277 0.571-0.63 1.116-0.957 1.679-0.378 0.638-0.747 1.267-1.2 1.863-0.118 0.159-0.185 0.336-0.311 0.487-0.294 0.361-0.646 0.638-0.957 0.982-0.487 0.537-0.974 1.074-1.519 1.561-0.52 0.47-1.066 0.873-1.62 1.276-0.537 0.394-1.066 0.781-1.645 1.125-0.63 0.369-1.276 0.68-1.93 0.982-0.579 0.269-1.15 0.529-1.754 0.747-0.73 0.26-1.477 0.445-2.233 0.621-0.42 0.101-0.806 0.269-1.234 0.344-0.185 0.034-0.361 0.008-0.546 0.034-0.764 0.118-1.536 0.134-2.308 0.168-0.621 0.017-1.234 0.067-1.838 0.034-0.713-0.034-1.418-0.168-2.132-0.277-0.638-0.101-1.276-0.176-1.897-0.336-0.671-0.168-1.309-0.428-1.964-0.663-0.63-0.227-1.267-0.436-1.872-0.722-0.571-0.277-1.116-0.63-1.679-0.957-0.646-0.386-1.284-0.755-1.88-1.209-0.151-0.118-0.327-0.185-0.478-0.302l-167.718-132.952c-9.065-7.202-10.601-20.396-3.408-29.478l88.45-111.574c-8.024-3.097-15.612-7.428-22.503-12.884-0.008 0-0.025-0.008-0.034-0.017-36.1-28.622-42.555-80.812-13.942-116.912s80.904-41.724 117.005-13.119c7.244 5.75 13.228 11.944 18.079 18.524l89.289-112.632c7.185-9.082 20.388-10.609 29.478-3.408l167.726 132.952c7.529 5.968 9.77 16.031 6.245 24.484-2.476 8.158-9.753 14.328-18.759 14.873-11.793 0.705-22.771 6.421-30.099 15.671-14.235 17.962-11.214 44.175 6.748 58.41 17.97 14.235 44.183 11.205 58.41-6.757 7.554-9.535 10.567-21.857 8.217-33.817-2.207-11.373 5.204-22.394 16.594-24.618 0.336-0.067 0.663-0.034 0.999-0.084 5.917-1.267 12.313-0.076 17.433 3.978l167.726 132.952c9.073 7.202 10.601 20.396 3.399 29.478zM699.191 336.19c-3.038 8.788-7.521 17.123-13.438 24.593-28.613 36.1-81.274 42.194-117.366 13.581s-42.177-81.274-13.581-117.357c5.909-7.453 13.035-13.706 20.925-18.684l-122.771-97.322-99.068 124.978c-0.159 0.201-0.361 0.353-0.529 0.546-0.462 0.537-0.965 1.032-1.477 1.519-0.52 0.504-1.041 0.99-1.603 1.427-0.428 0.336-0.881 0.621-1.335 0.915-0.722 0.478-1.444 0.923-2.207 1.301-0.369 0.185-0.755 0.327-1.133 0.487-0.915 0.386-1.838 0.73-2.795 0.982-0.294 0.076-0.588 0.126-0.881 0.185-1.116 0.243-2.241 0.403-3.374 0.47-0.092 0-0.176 0.034-0.26 0.034-0.126 0-0.252-0.025-0.378-0.025-1.209 0.025-2.401-0.042-3.609-0.227-0.185-0.025-0.361-0.059-0.546-0.101-1.192-0.21-2.359-0.529-3.508-0.948-0.118-0.042-0.227-0.092-0.344-0.134-1.175-0.453-2.3-1.016-3.399-1.695-0.034-0.017-0.076-0.042-0.109-0.067-0.663-0.411-1.351-0.772-1.972-1.267-5.044-3.995-7.663-9.846-7.848-15.813-0.252-6.614-2.199-16.812-16.72-28.311-17.962-14.244-43.973-11.44-58.225 6.522-14.244 17.97-10.853 43.713 7.134 57.957 0.008 0 0.008 0 0.008 0.017 9.25 7.327 20.942 10.71 32.6 8.712 11.407-1.956 21.991 6.043 23.955 17.475 1.276 7.395-1.452 14.412-6.614 19.003-0.613 1.175-1.318 2.317-2.174 3.391l-93.855 118.398 121.831 96.567c2.971-7.521 7.076-14.705 12.414-21.437 28.613-36.109 81.265-42.194 117.366-13.589 36.1 28.622 42.185 81.265 13.564 117.374-5.338 6.74-11.432 12.355-18.113 16.913l121.277 96.138 93.864-118.398c1.301-1.637 2.845-2.946 4.474-4.079 3.45-5.154 9.14-8.679 15.931-9.090 11.583-0.688 21.705 7.89 22.394 19.456 0.705 11.793 6.774 22.301 16.015 29.629l0.017 0.008c17.979 14.244 43.814 11.675 58.049-6.295 14.235-17.962 10.853-43.713-7.126-57.957-9.527-7.554-21.857-10.559-33.8-8.217-11.382 2.207-22.41-5.204-24.635-16.577-1.393-7.143 1.024-14.143 5.825-18.91 0.076-0.101 0.126-0.218 0.201-0.319l99.059-124.978-122.108-96.776z" />
<glyph unicode="&#xe613;" d="M512 817.747c-205.942 0-372.904-166.929-372.904-372.879 0-205.925 166.962-372.904 372.904-372.904 205.933 0 372.904 166.988 372.904 372.904 0 205.95-166.971 372.879-372.904 372.879zM512 145.021c-165.342 0-299.847 134.505-299.847 299.839 0 165.317 134.505 299.814 299.847 299.814 165.326 0 299.839-134.497 299.839-299.814 0-165.326-134.513-299.839-299.839-299.839zM460.582 308.501h80.921v-80.921h-80.921v80.921zM512 662.125c-69.061 0-125.239-56.186-125.239-125.239v-23.619h80.921v23.619c0 24.845 19.473 44.309 44.317 44.309s44.317-19.456 44.317-44.309c0-18.407-12.036-29.738-33.314-48.162-23.586-20.438-52.963-45.895-60.038-93.243-1.637-9.77-2.384-20.404-2.384-33.498v-18.256h80.921v18.256c0 7.965 0 14.244 1.267 20.614 4.012 20.707 19.607 34.422 37.678 50.294 25.306 22.243 56.79 49.933 56.79 103.995 0 69.044-56.169 125.239-125.239 125.239z" />
<glyph unicode="&#xe614;" d="M762.402 749.92c-1.016 1.293-2.107 2.518-3.282 3.685l-48.472 48.464c-1.133 1.167-2.375 2.233-3.66 3.257-23.77 18.55-50.033 33.582-77.967 44.662-37.426 14.848-76.8 22.385-117.030 22.385-175.045 0-317.448-142.412-317.448-317.44 0-31.316 8.696-68.264 26.582-112.967 69.775-174.441 258.317-408.022 260.146-410.246 7.655-9.174 18.927-14.378 30.72-14.378 1.511 0 3.080 0.101 4.6 0.277 10.651 1.225 20.253 6.698 26.725 14.915 47.851 59.711 286.116 365.207 286.116 522.408 0.008 71.327-23.166 138.744-67.030 194.98zM512.076 81.903c-60.508 79.713-185.688 252.374-238.433 384.252-18.936 47.423-22.931 75.986-22.931 91.623 0 144.073 117.181 261.271 261.288 261.271 33.079 0 65.494-6.203 96.306-18.44 22.201-8.796 43.016-20.598 62.036-35.11l49.353-49.37c35.026-45.837 53.575-100.545 53.575-158.359 0-106.983-155.396-337.408-261.196-475.866zM522.039 698.829c-3.341 0.235-6.622 0.47-10.030 0.47-75.306 0-136.553-61.264-136.553-136.553 0-3.223 0.185-6.379 0.495-10.341 5.347-70.79 65.091-126.212 136.058-126.212 75.289 0 136.545 61.264 136.545 136.553 0 70.967-55.472 130.719-126.514 136.083zM512 480.104c-42.932 0-79.058 33.54-82.34 76.85-0.118 1.93-0.311 3.844-0.311 5.791 0 45.576 37.074 82.65 82.65 82.65 1.981 0 3.937-0.185 6.287-0.353 42.798-3.231 76.355-39.365 76.355-82.289 0-45.576-37.074-82.65-82.642-82.65z" />
<glyph unicode="&#xe615;" d="M222.426 260.196h579.148c16.199 0 29.377 13.178 29.377 29.377v386.098c0 16.199-13.178 29.377-29.377 29.377h-579.148c-16.199 0-29.377-13.178-29.377-29.377v-386.098c0-16.199 13.178-29.377 29.377-29.377zM235.016 663.082h553.967v-360.918h-553.967v360.918zM868.721 264.393c-11.591 0-20.984-9.392-20.984-20.984v-16.787h-671.475v16.787c0 11.591-9.392 20.984-20.984 20.984s-20.984-9.392-20.984-20.984v-33.574c0-6.866 3.341-12.909 8.444-16.737 3.827-5.103 9.871-8.444 16.737-8.444h705.049c6.866 0 12.909 3.341 16.737 8.444 5.103 3.827 8.444 9.871 8.444 16.737v33.574c0 11.591-9.392 20.984-20.984 20.984zM720.988 568.806l-88.022-88.022-62.741 62.741c-8.2 8.2-21.496 8.2-29.671 0l-89.642-89.634-64.302 64.302c-7.873 7.873-21.806 7.873-29.671 0l-83.599-83.607c-8.2-8.192-8.2-21.479 0-29.671 4.096-4.096 9.468-6.144 14.84-6.144s10.744 2.048 14.84 6.144l68.767 68.767 64.302-64.302c8.192-8.2 21.487-8.2 29.671 0l89.634 89.634 62.749-62.741c8.2-8.2 21.496-8.2 29.671 0l102.862 102.853c8.2 8.192 8.2 21.479 0 29.671-8.2 8.2-21.496 8.2-29.688 0.008z" />
<glyph unicode="&#xe616;" d="M722.978 330.894c-14.336 5.909-29.033 10.399-43.914 13.346-8.419 1.62-16.938 2.862-25.541 3.676 85.051 49.832 137.661 142.227 137.661 240.464 0 152.458-125.482 279.191-279.183 279.191-152.542 0-279.267-125.39-279.267-279.191 0-98.228 53.055-190.984 137.661-240.548-24.022-2.065-47.415-7.89-69.456-17.022-87.384-36.302-144.93-122.435-144.93-216.626v-59.51c0-17.928 14.521-32.533 32.449-32.533h647c17.92 0 32.533 14.605 32.533 32.533v59.51c0 93.923-58.175 180.862-145.014 216.71zM297.791 588.38c0 28.68 5.649 56.563 16.225 82.105 32.894 79.763 111.943 132.012 197.985 132.012 118.566 0 214.117-97.062 214.117-214.117 0-85.496-51.62-164.008-130.946-197.439-52.963-22.318-113.471-22.394-166.526 0-78.949 33.162-130.854 111.943-130.854 197.439zM802.925 87.199h-581.934v26.977c0 68.381 41.59 130.493 104.859 156.664 20.169 8.427 42.127 12.909 64.621 12.909h242.965c11.205 0 22.318-1.175 33.171-3.231 10.844-2.149 21.412-5.38 31.459-9.493 10.307-4.306 20.253-9.602 29.218-15.696 47.146-31.358 75.642-84.606 75.642-141.153v-26.977z" />
<glyph unicode="&#xe617;" d="M278.36 491.755c-11.071 27.329 2.098 58.444 29.436 69.54l99.496 40.297 50.747-52.258 6.077-6.337c11.314-11.751 27.22-15.427 39.030-10.089 0.176 0.076 0.344 0.168 0.52 0.26 0.923 0.436 1.813 0.932 2.678 1.494 0.302 0.185 0.604 0.386 0.89 0.588 0.957 0.671 1.897 1.402 2.77 2.241 0.050 0.025 0.076 0.059 0.118 0.076l7.495 7.227c0.042 0.025 0.059 0.059 0.084 0.109 0.873 0.839 1.628 1.746 2.342 2.661 0.227 0.294 0.428 0.604 0.638 0.881 0.579 0.839 1.108 1.712 1.595 2.627 0.092 0.176 0.193 0.327 0.277 0.504 5.791 11.625 2.694 27.64-8.603 39.39l-6.102 6.312-4.272 4.482-6.052 6.203-59.4 61.146c-10.383 10.76-24.643 14.739-36.050 11.188-0.084-0.017-0.176-0.017-0.269-0.025l-119.321-43.923c-8.125-3.064-13.337-9.107-16.518-16.493-0.067-0.159-0.176-0.277-0.243-0.436l-62.456-147.54c-5.993-14.118 3.693-31.761 21.638-39.332l93.469-39.583-40.012 98.791zM232.154 660.874c-17.593 7.428-36.612 2.241-42.479-11.658l-61.171-144.46c-5.85-13.883 3.634-31.156 21.235-38.601 17.584-7.437 36.637-2.258 42.504 11.608l61.155 144.493c5.909 13.866-3.643 31.156-21.244 38.618zM878.214 255.664h-591.662c-10.5 0-19.011-8.519-19.011-19.020v-9.501c0-10.509 8.503-19.011 19.011-19.011h591.662c10.5 0 19.011 8.503 19.011 19.011v9.501c0 10.5-8.511 19.020-19.011 19.020zM533.898 610.253c6.329-6.589 11.214-14.051 14.537-22.243 1.091-2.703 1.922-5.456 2.644-8.209l71.537 28.983 128.974-318.355h49.874l-143.99 355.412c-5.162 12.766-19.741 18.919-32.499 13.757l-99.647-40.372 2.577-2.77 5.993-6.203zM435.351 532.908l-1.519 1.57-33.272 34.203-82.826-33.549c-12.758-5.162-18.919-19.75-13.757-32.491l85.982-212.211h49.865l-85.017 209.844 80.543 32.634zM498.050 457.585c1.058 2.191 1.007 4.574-0.176 6.53-1.259 2.082-3.584 3.391-6.22 3.466-4.356 0.159-8.654-2.073-11.524-5.926-0.571-0.772-1.066-1.586-1.477-2.426-6.077-12.498-11.004-25.046-14.647-37.342-3.181 1.972-6.362 3.962-9.535 5.951-11.146 6.983-22.679 14.227-34.648 20.362-3.777 1.939-8.36-0.403-10.735-3.626-1.502-2.006-2.098-4.272-1.654-6.203 0.285-1.2 1.1-2.862 3.433-4.054 10.744-5.54 21.143-12.112 31.19-18.491 4.188-2.644 8.511-5.38 12.808-8.007 1.511-0.932 3.349-1.2 5.321-0.831-0.646-3.013-1.217-5.985-1.679-8.83-4.339-26.473 1.93-44.51 18.138-52.157 4.667-2.207 10.752 0.932 13.942 5.229 1.889 2.552 2.619 5.221 2.040 7.521-0.353 1.402-1.377 3.357-4.247 4.709-14.974 7.076-10.173 32.667-8.368 42.286 3.030 16.191 8.931 33.121 18.038 51.838zM596.094 498.973c0.671 0.495 1.234 0.915 1.645 1.242 0.47 0.369 2.627 2.317 4.104 4.306 1.377 1.847 1.863 3.324 1.477 4.49-0.185 0.579-0.663 1.335-1.863 1.712-4.709 1.477-10.324-2.954-13.681-5.598l-0.285-0.235-0.411-0.327c-4.339-3.399-13.371-10.509-19.162-18.314-4.222-5.674-5.884-10.676-4.935-14.865 0.764-3.391 3.215-6.203 7.286-8.351 6.413-3.391 14.067-4.289 20.824-5.078 0.881-0.109 1.746-0.201 2.602-0.311 2.35-0.294 4.709-0.546 7.067-0.797 6.026-0.638 12.246-1.301 18.264-2.703 7.621-1.771 17.383-5.456 20.606-12.892 1.687-3.886-0.688-8.393-2.98-11.474-0.546-0.73-1.142-1.46-1.788-2.191-7.218-8.15-16.040-15.049-24.559-21.731-6.236-4.885-12.682-9.938-18.533-15.486-0.403-0.386-0.932-0.999-1.402-1.637-1.284-1.729-2.61-4.121-1.679-5.8 0.554-1.007 1.687-1.46 3.349-1.335 4.289 0.327 8.947 2.904 14.227 7.915 5.372 5.095 11.465 9.938 17.92 15.066 8.427 6.681 17.139 13.606 24.484 21.386 2.14 2.275 4.029 4.499 5.607 6.622 5.321 7.168 7.537 13.681 6.564 19.33-0.797 4.667-3.743 8.738-8.754 12.112-11.021 7.395-24.156 8.628-36.872 9.82-5.321 0.504-10.358 0.965-15.226 1.863l-0.94 0.185c-5.17 0.932-12.254 2.224-14.739 7.134-0.932 1.855-0.403 4.054 1.595 6.765 2.711 3.668 7.395 7.118 10.19 9.174zM538.381 378.258c11.793-0.974 24.551 3.987 34.119 13.262 2.090 2.040 4.037 4.247 5.783 6.606 7.101 9.56 11.432 21.63 13.623 37.997 0.243 1.813-0.646 2.787-1.217 3.181-2.644 1.939-8.654-0.168-9.644-0.638-2.107-0.999-5.036-2.753-7.050-5.456-1.158-1.553-1.872-3.248-2.107-5.019-1.083-8.167-3.231-19.918-9.166-27.908-0.982-1.326-2.040-2.501-3.164-3.517-1.519-1.385-2.568-1.939-5.422-2.392-3.265-0.512-6.992-0.092-10.794 1.2-16.485 5.582-27.153 23.015-25.365 41.447 0.529 5.397 2.787 10.895 4.574 14.563 0.898 1.838 1.788 3.341 2.719 4.583 0.076 0.109 0.168 0.218 0.243 0.344 0.411 0.311 0.839 0.814 1.293 1.368 0.126 0.076 0.269 0.159 0.394 0.252 0.739 0.143 0.89 0.126 1.863-0.017l0.579-0.076c2.107-0.277 4.516-1.444 7.143-3.483 4.037-3.106 6.455-8.536 6.161-13.832-0.034-0.478-0.378-1.679-0.839-2.845-0.143-0.176-0.269-0.344-0.394-0.512-0.092-0.126-0.201-0.269-0.294-0.42l-0.059-0.050c-0.411-0.327-0.63-0.495-0.764-0.621-0.143-0.067-0.294-0.143-0.495-0.235-1.981-1.016-4.465-1.62-7.042-2.224-3.542-0.823-7.437-3.433-9.703-6.471-0.789-1.058-1.36-2.157-1.704-3.248-0.688-2.174-0.042-3.483 0.621-4.197 1.981-2.132 6.22-1.335 7.47-1.041 9.098 2.124 21.252 7.663 28.051 16.82 4.935 6.639 6.245 14.227 3.794 21.94-2.073 6.513-6.522 11.39-12.842 14.084-7.512 3.198-16.594 2.845-24.307-0.948-6.001-2.954-11.474-7.621-15.838-13.488-9.443-12.716-13.102-29.587-9.535-44.032 4.726-19.053 20.874-33.431 39.315-34.975zM530.944 309.373c41.757 32.155 92.823 46.735 143.738 56.983 5.070 1.007 11.214 6.253 9.678 12.003-1.662 6.203-9.308 6.58-14.386 5.556-55.137-11.088-110.080-27.849-155.237-62.623-4.247-3.265-5.993-9.577-1.1-13.169 5.036-3.685 12.632-2.333 17.307 1.251z" />
<glyph unicode="&#xe618;" d="M492.897 464.635l-23.972 61.969c-5.456 11.289-10.081 19.674-13.706 25.122-3.735 5.447-11.625 9.157-23.711 11.105l-18.113 2.333v9.367h257.2v-9.367h-8.209c-2.694 0-7.781-0.671-15.15-2.031-7.428-1.368-13.706-3.030-18.743-4.969-5.028-1.947-7.621-7.789-7.621-17.551 0-8.947 2.703-21.437 7.94-37.41 5.246-15.99 11.365-33.809 18.424-53.483 7-19.674 16.132-45.098 27.455-76.288 11.264-31.156 19.456-53.76 24.542-67.802 5.086 13.228 11.205 29.218 18.424 47.918 7.21 18.709 17.181 45.123 29.847 79.217 12.666 34.103 20.908 57.47 24.794 70.127 3.903 12.666 5.808 23.695 5.808 33.037 0 8.956-2.275 15.385-6.95 19.28-4.667 3.895-10.374 6.337-16.963 7.327-6.648 0.957-12.867 1.553-18.734 1.763-5.8 0.185-11.314 0.462-16.334 0.856v9.375h150.805v-9.367l-25.734-2.913c-12.506-1.964-22.268-5.473-29.218-10.534-7.059-5.061-13.287-14.009-18.785-26.876l-17.542-45.022-125.188-333.757h-46.81l-106.496 301.61-111.683-301.61h-46.802l-119.372 334.924-18.163 45.618c-5.8 12.456-11.205 21.336-16.082 26.599-4.877 5.238-12.137 8.452-21.898 9.619l-20.497 2.333v9.375h252.525v-9.367l-18.726-1.746c-8.922-1.167-15.259-3.030-19.003-5.556-3.676-2.543-5.498-7.311-5.498-14.319 0-8.595 3.215-22.318 9.652-41.212 6.438-18.91 14.479-41.791 24.232-68.684 9.703-26.901 18.533-50.671 26.313-71.319 7.789-20.656 14.227-37.812 19.313-51.435l58.427 153.743zM511.908 860.445c114.73 0 218.523-46.483 293.779-121.688v-0.176h0.176v-0.092c75.256-75.163 121.78-179.133 121.78-293.687s-46.525-218.523-121.78-293.77h-0.176v-0.176c-75.256-75.247-179.049-121.596-293.779-121.596-114.545 0-218.523 46.433-293.594 121.68l-0.353 0.185c-75.079 75.247-121.604 179.133-121.604 293.687 0 114.722 46.525 218.523 121.78 293.77v0l0.176 0.176c75.256 75.205 179.049 121.688 293.594 121.688v0zM760.572 693.642c-63.446 63.53-151.384 102.87-248.664 102.87-97.095 0-185.042-39.348-248.656-102.87v-0.176c-63.622-63.53-102.92-151.384-102.92-248.656 0-97.104 39.298-185.042 102.92-248.656v-0.176c63.614-63.446 151.56-102.828 248.656-102.828 97.28 0 185.218 39.382 248.664 102.828l0.176 0.176c63.622 63.622 102.92 151.56 102.92 248.656 0 97.28-39.298 185.126-102.92 248.656l-0.176 0.176z" />
</font>
</defs>
</svg>
